#TITLE:Give It To You;
#SUBTITLE:;
#ARTIST:Eve ft Sean Paul;
#TITLETRANSLIT:;
#SUBTITLETRANSLIT:;
#ARTISTTRANSLIT:Eve ft Sean Paul;
#CREDIT:;
#BANNER:Give It To You-bn.png;
#BACKGROUND:Give It To You-bg.png;
#LYRICSPATH:;
#CDTITLE:pm4cd.png;
#MUSIC:Give It To You.mp3;
#OFFSET:0.000;
#SAMPLESTART:10.740;
#SAMPLELENGTH:15.000;
#SELECTABLE:YES;
#BPMS:0.000=176.040;
#STOPS:;
#BGCHANGES:;
// cache tags:
#FIRSTBEAT:1.250;
#LASTBEAT:570.000;
#SONGFILENAME:Songs/nhac/Give It To You/Give It To You.sm;
#HASMUSIC:1;
#HASBANNER:1;
#MUSICLENGTH:202.535;
// end cache tags

//---------------dance-single - ----------------
#NOTES:
     dance-single:
     :
     Hard:
     11:
     1.000,1.000,1.000,0.000,1.000,1253.000,459.000,0.000,0.000,132.000:
0000
0000
0000
0000
0000
0001
0000
0010
0000
0100
0000
1000
0000
0000
0000
1000
,
0000
0100
0000
0010
0000
0001
0000
0010
0000
0100
0000
1000
0000
0000
0000
0001
,
0000
0010
0000
0100
0000
1000
0000
0100
0000
0010
0000
0001
0000
0000
0000
1000
,
0000
0100
0000
0010
0000
0001
0000
0010
0000
0100
0000
1000
0000
0000
0000
0001
,
0000
0010
0000
0100
0000
1000
0000
0100
0000
0010
0000
0001
0000
0000
0000
1000
,
0000
0100
0000
0010
0000
0001
0000
0010
0000
0100
0000
1000
0000
0000
0000
0001
,
0000
0010
0000
0100
0000
1011
0000
0000
0000
1101
0000
0000
0000
1011
0000
0000
,
0000
1101
0000
0000
0000
0111
0000
0111
0000
0111
0000
0111
0000
0111
0000
0111
,
0000
0111
0000
0111
0000
1111
0000
0100
0000
0101
0000
0010
0000
0110
0000
1000
,
0000
0101
0000
0010
0000
1101
0000
0100
0000
0101
0000
0010
0000
1100
0000
0010
,
0000
0101
0000
1000
0000
1110
0000
0010
0000
0110
0000
0010
0000
0011
0000
0100
,
0000
1010
0000
0100
0000
0111
0000
1000
0000
1100
0000
0010
0000
0011
0000
0100
,
0000
1010
0000
0001
0000
1101
0000
0010
0000
1001
0000
0100
0000
0101
0000
0010
,
0000
1010
0000
0100
0000
1011
0000
0010
0000
0101
0000
1000
0000
1010
0000
0100
,
0000
0011
0000
0001
0000
0111
0000
1000
0000
0110
0000
0010
0000
0011
0000
0100
,
0000
1010
0000
0100
0000
1101
0000
0010
0000
1101
0000
0010
0000
1101
0000
0010
,
0000
1101
0000
0010
0000
1111
0000
0010
0000
0011
0000
0100
0000
1010
0000
0001
,
0000
1100
0000
0010
0000
0111
0000
1000
0000
0011
0000
0100
0000
1001
0000
0010
,
0000
1100
0000
0001
0000
1011
0000
0100
0000
1010
0000
0001
0000
1100
0000
0010
,
0000
1100
0000
0010
0000
0111
0000
1000
0000
0101
0000
0010
0000
1100
0000
0010
,
0000
0101
0000
1000
0000
1101
0000
0010
0000
1100
0000
0001
0000
1010
0000
0100
,
0000
0011
0000
0100
0000
1110
0000
0100
0000
1001
0000
0010
0000
1100
0000
0010
,
0000
0101
0000
1000
0000
0111
0000
0100
0000
1010
0000
0100
0000
0011
0000
0001
,
0000
1100
0000
1000
0000
0111
0000
1000
0000
0111
0000
1000
0000
0111
0000
1000
,
0000
0000
0000
0111
0000
0000
0000
0000
0000
1000
0000
0000
0000
0000
0000
1111
0000
0000
0000
0000
0000
0000
0000
0000
1000
0000
0000
0000
0100
0000
0000
0000
0010
0000
0000
0000
0001
0000
0000
0000
0010
0000
0000
0000
0001
0000
0000
0000
,
0100
0010
0001
1000
0100
1000
0100
0010
0100
0001
0010
0100
,
0010
0100
1000
0001
0010
0100
0010
0001
1000
0100
0010
0001
,
1000
0100
0010
1000
0100
0001
0010
1000
0100
1000
0001
0010
,
0001
0100
0010
0100
1000
0001
0010
0100
1000
0100
0010
0100
,
0001
0100
0010
1000
0010
0100
0001
1000
0100
0010
1000
0001
,
0010
0100
0001
1000
0010
0100
0010
0001
1000
0010
0100
0010
,
0100
1000
0100
0011
1000
0100
0011
1000
0100
0011
1000
0100
,
0011
1000
0100
0011
1000
0111
1000
0100
0010
0100
1000
0001
,
0010
0001
0100
0010
0100
0001
0010
0100
1000
0100
0010
0001
,
1000
0100
0001
0010
1000
0100
0001
1000
0010
0100
0001
0010
,
0100
0001
1000
0010
0100
0001
0010
0100
1000
0010
0100
0001
,
1000
0010
1000
0001
0100
0001
1000
0001
1000
0010
0100
0010
,
1000
0100
1000
0001
0010
0001
1000
0100
0010
0100
0010
0001
,
0010
0100
0010
0001
1000
0100
0010
0001
0010
0100
1000
0001
,
0010
0100
0010
0001
0010
1100
0001
0010
1100
0001
0010
1100
,
0001
0000
0010
0000
1100
0000
0001
0000
0010
0000
1101
0000
0010
0000
0000
1100
0000
0000
0001
0000
0000
1010
0000
0000
,
0100
0101
0010
1011
0100
1010
0100
0011
,
0100
1001
0010
0111
0100
1100
0100
0101
,
0001
1100
0010
1110
0100
0101
0010
1100
,
0001
0101
1000
1011
0100
0110
0010
0011
,
0100
1100
0100
1101
0010
0101
1000
0011
,
0100
1010
1000
1110
0010
0101
0001
0011
,
0100
1001
0001
1110
0001
1110
0001
1110
,
0001
1110
0001
1111
0010
1100
0001
1010
,
0100
0011
0100
0111
0010
1100
0001
1010
,
0100
0011
1000
1101
0010
0110
1000
0101
,
0001
0101
1000
1011
0010
0011
1000
0101
,
1000
0011
0100
1011
0010
0101
0001
1100
,
0100
0110
0010
1101
0010
1100
0001
1010
,
0100
0110
0001
1101
1000
1100
0010
0101
,
1000
0110
0010
1101
0010
1101
0010
1101
,
0010
0000
0000
1101
0000
0000
0010
0000
0000
1101
0000
0000
0001
0000
0010
0000
0100
0000
0010
0000
0001
0000
0100
0000
,
0010
1000
0001
0010
1000
0100
0001
0010
0001
1000
0100
1000
,
0010
0100
1000
0001
0010
0100
0010
0001
0100
0010
0100
1000
,
0100
0001
0010
0100
0010
0100
1000
0001
0100
1000
0100
0001
,
1000
0100
1000
0010
0100
0010
0001
0100
0010
0100
1000
0010
,
0100
0001
1000
0100
0010
0001
1000
0010
0100
0001
0100
0010
,
1000
0001
0010
0100
1000
0010
0001
1000
0010
0100
1000
0001
,
0100
0010
0001
1000
0100
0011
1000
0100
0011
1000
0100
0011
,
1000
0100
0011
1000
0100
1011
0100
0010
0100
1000
0001
0010
,
0100
1000
0010
0100
0010
0001
1000
0010
1000
0001
0100
0001
,
1000
0001
1000
0001
1000
0100
0001
0010
0100
0001
0100
0010
,
0001
1000
0010
0001
0010
0001
0100
0010
0001
0100
0010
0100
,
1000
0001
0010
0100
1000
0010
1000
0100
0010
0001
1000
0001
,
0010
0100
1000
0010
0100
0010
0001
1000
0100
1000
0100
0010
,
0001
0100
0001
0010
0001
0010
0100
1000
0010
0100
0010
1000
,
0010
1000
0100
0001
0010
1100
0001
0010
1100
0001
0010
1100
,
0001
0000
0000
0000
0010
0000
0000
0000
1100
0000
0000
0000
0001
0000
0000
0000
0010
0000
0000
0000
1101
0000
0000
0000
0000
0000
0000
0010
0000
0000
0000
0000
0000
0101
0000
0000
0000
0000
0000
1000
0000
0000
0000
0000
0000
0011
0000
0000
,
0000
0100
0000
1010
0000
0001
0000
1110
0000
0001
0000
0110
0000
1000
0000
0101
,
0000
0010
0000
1100
0000
0010
0000
0111
0000
0001
0000
0011
0000
0010
0000
1100
,
0000
0001
0000
1010
0000
0100
0000
1011
0000
0010
0000
0101
0000
1000
0000
0011
,
0000
0100
0000
1010
0000
0100
0000
0111
0000
0010
0000
1100
0000
0010
0000
0101
,
0000
1000
0000
1100
0000
0010
0000
1011
0000
0100
0000
0011
0000
1000
0000
0101
,
0000
0010
0000
1100
0000
0010
0000
0111
0000
1000
0000
0101
0000
0010
0000
1100
,
0000
0010
0000
0101
0000
0100
0000
1011
0000
0100
0000
1011
0000
0100
0000
1011
,
0000
0100
0000
1011
0000
0100
0000
1111
0000
0001
0000
1010
0000
0100
0000
0011
,
0000
1000
0000
1100
0000
0010
0000
0111
0000
0001
0000
0101
0000
0010
0000
1100
,
0000
0001
0000
1010
0000
0100
0000
1011
0000
1000
0000
0101
0000
0010
0000
1100
,
0000
0010
0000
0101
0000
1000
0000
0111
0000
0100
0000
1001
0000
0010
0000
1100
,
0000
0001
0000
1010
0000
0100
0000
1011
0000
0001
0000
0011
0000
1000
0000
0101
,
0000
0010
0000
1100
0000
0001
0000
1110
0000
0100
0000
1010
0000
0100
0000
0101
,
0000
0010
0000
1100
0000
0001
0000
1011
0000
1000
0000
1001
0000
0010
0000
1100
,
0000
0010
0000
0101
0000
0010
0000
1101
0000
0010
0000
1101
0000
0010
0000
1101
,
0000
0010
0000
1101
0000
0010
0000
1111
0000
1000
0000
1010
0000
0100
0000
0011
,
0000
1000
0000
0101
0000
0010
0000
1100
0000
0010
0000
0101
0000
1000
0000
0011
,
0000
0100
0000
0110
0000
0001
0000
0011
0000
1000
0000
0101
0000
0010
0000
1100
,
0000
0010
0000
0101
0000
1000
0000
0011
0000
0100
0000
1010
0000
0001
0000
1100
,
0000
0010
0000
0101
0000
1000
0000
0110
0000
0010
0000
0011
0000
1000
0000
1100
,
0000
1000
0000
0101
0000
0010
0000
0110
0000
0001
0000
1010
0000
0100
0000
1001
,
0000
0010
0000
1100
0000
0001
0000
1010
0000
0100
0000
0011
0000
1000
0000
0101
,
0000
0010
0000
1100
0000
1000
0000
0111
0000
1000
0000
0111
0000
1000
0000
0111
,
0000
1000
0000
0111
0000
1000
0000
1111
0000
0110
0000
1001
0000
0110
0000
0000
,
1100
0110
0011
1001
0110
1001
1100
0110
,
0011
0000
1100
0000
0110
0000
0000
1001
0000
0101
0000
1010
0000
0101
0000
0011
,
0000
0110
0000
1100
0000
1001
0000
0111
0000
1100
0000
0101
0000
1001
0000
0011
,
0000
1010
0000
1001
0000
1100
0000
1100
0000
0011
0000
0011
0000
0000
0000
1001
,
0000
0110
0000
1001
0000
0101
0000
0101
0000
1010
0000
1010
0000
0110
0000
0011
,
0000
1100
0000
0011
0000
1001
0000
1001
0000
0110
0000
0110
0000
1010
0000
0101
,
0000
1010
0000
1100
0000
0011
0000
1110
0000
0011
0000
1110
0000
0011
0000
1110
,
0000
0011
0000
1110
0000
0011
0000
1111
0000
0100
0000
0101
0000
0010
0000
1010
,
0000
0100
0000
0110
0000
0010
0000
1011
0000
0100
0000
1001
0000
0010
0000
0101
,
0000
0001
0000
0011
0000
1000
0000
0111
0000
1000
0000
0110
0000
0010
0000
1001
,
0000
0100
0000
0101
0000
0010
0000
1101
0000
0100
0000
1100
0000
0010
0000
0101
,
0000
1000
0000
0011
0000
0100
0000
0111
0000
1000
0000
0101
0000
0010
0000
0011
,
0000
0001
0000
1001
0000
1000
0000
1110
0000
0010
0000
1010
0000
0100
0000
0011
,
0000
1000
0000
0101
0000
0010
0000
1101
0000
0010
0000
1100
0000
0001
0000
1010
,
0000
0100
0000
0011
0000
1000
0000
0111
0000
1000
0000
0111
0000
1000
0000
0111
,
0000
1000
0000
0111
0000
1000
0000
1111
0000
0001
0000
1010
0000
0100
0000
0110
,
0000
0010
0000
0011
0000
0001
0000
1101
0000
1000
0000
1100
0000
0100
0000
0110
,
0000
1000
0000
0101
0000
0010
0000
1101
0000
0010
0000
0110
0000
1000
0000
1100
,
0000
0010
0000
0011
0000
1000
0000
0111
0000
1000
0000
0011
0000
0100
0000
1010
,
0000
1000
0000
0011
0000
0100
0000
1011
0000
1000
0000
0110
0000
0010
0000
1010
,
0000
0100
0000
0101
0000
0010
0000
0111
0000
1000
0000
0101
0000
1000
0000
0011
,
0000
0100
0000
1010
0000
0001
0000
1101
0000
0010
0000
1001
0000
1000
0000
1010
,
0000
0100
0000
0101
0000
0001
0000
1110
0000
0001
0000
1110
0000
0001
0000
1110
,
0000
0001
0000
1110
0000
0001
0000
1111
0000
0000
1000
0000
0100
0000
0010
0000
,
0001
0010
0100
1000
0011
0100
1000
0100
,
0010
0001
0010
0100
1010
0100
0010
0001
,
0010
0100
1000
0010
1100
0010
0001
0010
,
0100
1000
0100
0010
0101
0010
0100
1000
,
0100
1000
0100
0010
1001
0100
0010
0100
,
1000
0100
0010
0001
1100
0001
0010
0100
,
0010
0001
1000
0100
0010
0001
0010
0100
,
1000
0100
0010
0001
1110
0101
1010
0110
,
0101
1100
0110
0011
1011
0101
0110
1100
,
0101
1010
1100
0110
0111
1010
1100
1010
,
0101
1001
0011
1001
1101
0110
1100
0101
,
1010
0101
1100
0110
0111
1001
1100
0011
,
0110
0011
0110
1010
1110
1001
1010
0110
,
0101
0011
0110
1100
1011
0101
1001
1100
,
0110
1001
0110
1100
0111
1100
0111
1100
,
0111
1100
0111
1100
1111
0001
0010
0100
,
1000
0100
0010
0100
1011
0100
1000
0100
,
0010
0001
0100
0010
1101
0010
0001
0010
,
0100
1000
0100
0010
1101
0010
0100
1000
,
0100
0010
0100
1000
0111
1000
0100
0010
,
0001
0010
0100
1000
0100
0010
0001
0010
,
0100
1000
0100
0010
0001
0000
0000
0000
;
